Christmas quiz 2020

Page 24/37
17 | 18 | 19 | 20 | 21 | 22 | 23 | | 25 | 26 | 27 | 28 | 29

By TheKid

Paragon (1175)

TheKid's picture

19-12-2020, 08:12

Another great one meits, nice! I defenitly don”t recignize all of them, so no 100% score for me this time. Luckely i have two days trying to remember where i know them from Smile
Enjoy everyone.

By Briqunullus

Champion (358)

Briqunullus's picture

19-12-2020, 09:31

hamlet wrote:

This time our wiki helped a lot. At least Briqunullus, who found this entry:

Nobody doing their research anymore? Those screws are clearly laying on the table there!

By dan

Master (175)

dan's picture

19-12-2020, 10:24

seems yesterday bet on the wrong horse...
as for today, loved penultimate track... but can't remember which game it was... great, meits!

By Manuel

Ascended (17946)

Manuel's picture

19-12-2020, 10:40

What! The answer program by Dan told me PHC-28! I should have trusted it!

By ren

Paragon (1811)

ren's picture

19-12-2020, 11:16

Quote:

We have another great riddle designed by Meits

Nice! I'm aiming at finishing preparing my riddle this weekend.

@Meits: all snippets are from games?

(ps. missing some crash cymbals etc. for good measure Wink)

By Meits

Scribe (6395)

Meits's picture

19-12-2020, 11:23

Yes, they're all games. That should narrow the search a bit Running Naked in a Field of Flowers

By ren

Paragon (1811)

ren's picture

19-12-2020, 12:26

QuizzZZ.cue

REM GENRE Meits
REM DATE 2020
PERFORMER "Meits"
TITLE "Quizmas 2020 - Day 19/20"
FILE "QuizzZZ.mp3" MP3
	TRACK 01 AUDIO
		TITLE "Track 01"
		INDEX 01 00:00:00
	TRACK 02 AUDIO
		TITLE "Track 02"
		INDEX 01 00:15:24
	TRACK 03 AUDIO
		TITLE "Track 03"
		INDEX 01 00:30:46
	TRACK 04 AUDIO
		TITLE "Track 04"
		INDEX 01 00:45:70
	TRACK 05 AUDIO
		TITLE "Track 05"
		INDEX 01 01:01:17
	TRACK 06 AUDIO
		TITLE "Track 06"
		INDEX 01 01:16:36
	TRACK 07 AUDIO
		TITLE "Track 07"
		INDEX 01 01:31:64
	TRACK 08 AUDIO
		TITLE "Track 08"
		INDEX 01 01:47:11
	TRACK 09 AUDIO
		TITLE "Track 09"
		INDEX 01 02:02:27
	TRACK 10 AUDIO
		TITLE "Track 10"
		INDEX 01 02:17:63
	TRACK 11 AUDIO
		TITLE "Track 11"
		INDEX 01 02:33:06
	TRACK 12 AUDIO
		TITLE "Track 12"
		INDEX 01 02:48:26
	TRACK 13 AUDIO
		TITLE "Track 13"
		INDEX 01 03:03:51



You're welcome Wink
(Player suggestion: foobar2000)

By ren

Paragon (1811)

ren's picture

19-12-2020, 12:48

Some question marks, esp. within the first 5 tunes..

What's that funky business @ track 03 & 04?? (I do think I should know 04 at least...) Hannibal

By Meits

Scribe (6395)

Meits's picture

19-12-2020, 13:44

I would totally fail this quest Running Naked in a Field of Flowers

By ren

Paragon (1811)

ren's picture

19-12-2020, 14:24

Why, you're MSX (-sound) 1337 right? Wink

Down to 2 question marks (I found one of the funky tunes)!

(Hmm.. I think you should actually do an HQ medley & put it on YT or something.. ;-) Btw: I think your bass is (again) a bit on the thick side... Wink)

Page 24/37
17 | 18 | 19 | 20 | 21 | 22 | 23 | | 25 | 26 | 27 | 28 | 29